Рекомендуем:
торрент игры » Музыка » Алексей Рыбников - Звезда и смерть Хоакина Мурьеты [Vinyl-Rip] (1978) FLAC скачать торрент на ПК

Алексей Рыбников - Звезда и смерть Хоакина Мурьеты [Vinyl-Rip] (1978) FLAC

/ Просмотров:  49 / Комментариев: 0
0 0


Название: Звезда и смерть Хоакина Мурьеты
Исполнитель: Алексей Рыбников
Год: 1978
Страна-производитель: СССР
Аудио кодек: FLAC
Тип рипа: Image+.cue
Жанр: Rock
Разрядность: 24/96
Продолжительность: 01:02:56
Код класса состояния винила: Excellent
Устройство воспроизведения: Technics - SL2000
Головка звукоснимателя: Audio-Technica AT440MLa
Предварительный усилитель: Ламповый самодельный
АЦП: ESI Juli
Программа-оцифровщик: Adobe Audition CS6
Обработка: Не производилась


[spoiler=1978 - Звезда и смерть Хоакина Мурьеты (Мелодия – С60 11191-94)]

01 Вступление
02 Песня Хоакина
03 Песня Шарманщика
04 Золото!
05 Хоакин и друзья
06 Ария Звезды
07 Ария Смерти
08 Сцена на таможне
09 Прощай!
10 Куплеты Смерти - Будет заваруха!
11 Вопросы Блаженного без ответа
12 Сцена на корабле
13 Таверна - Заваруха
14 Девицы и Хоакин
15 Драка в таверне - Заваруха
16 Реплика Смерти
17 Заговор
18 Песня Тересы
19 Нападение
20 Колыбельная не родившемуся сыну
21 Реквием
22 Клятва Хоакина
23 Месть Хоакина
24 Вторая ария Смерти
25 Воспоминание о Родине
26 Шествие к могиле Тересы
27 Эпилог


[spoiler=Спектр, АЧХ, Уровень записи][/spoiler]
[spoiler=Альтернативный CUE]
REM GENRE Рок-Опера
REM DATE 1978
REM Музыкальный спектакль, Либретто Павла Грушко, по мотивам драматической кантаты Пабло Неруды.
PERFORMER "Алексей Рыбников"
TITLE "Звезда и смерть Хоакина Мурьеты"
FILE "Хоакин Мурьета.flac" WAVE
TRACK 01 AUDIO
TITLE " Пролог"
INDEX 01 00:00:00
TRACK 02 AUDIO
TITLE "Песня Хоакина"
INDEX 01 01:48:00
TRACK 03 AUDIO
TITLE "Песня о Чили"
INDEX 01 03:32:00
TRACK 04 AUDIO
TITLE "Весть о золоте В Калифорнии"
INDEX 01 05:19:00
TRACK 05 AUDIO
TITLE "Хоакин и друзья"
INDEX 01 06:45:00
TRACK 06 AUDIO
TITLE "Ария Звезды"
INDEX 01 08:39:00
TRACK 07 AUDIO
TITLE "Ария Смерти"
INDEX 01 11:31:00
TRACK 08 AUDIO
TITLE "В таможне"
INDEX 01 14:26:40
TRACK 09 AUDIO
TITLE "Прощание с Чили"
INDEX 01 16:05:30
TRACK 10 AUDIO
TITLE "Куплеты Смерти: Будет Заваруха!"
INDEX 01 18:36:00
TRACK 11 AUDIO
TITLE "Вопросы Блаженного без ответа"
INDEX 01 20:18:00
TRACK 12 AUDIO
TITLE "Встреча Хоакина И Тересы"
INDEX 01 22:03:00
TRACK 13 AUDIO
TITLE "Пророчества Смерти"
INDEX 01 25:36:00
TRACK 14 AUDIO
TITLE "Ария Звезды"
INDEX 01 26:29:00
TRACK 15 AUDIO
TITLE "В Калифорнии"
INDEX 01 28:22:00
TRACK 16 AUDIO
TITLE "Таверна 'Заваруха'"
INDEX 01 29:26:00
TRACK 17 AUDIO
TITLE "Девицы,Трёхпалый и Хоакин"
INDEX 01 32:13:00
TRACK 18 AUDIO
TITLE "Драка в таверне 'Заваруха'"
INDEX 01 33:09:00
TRACK 19 AUDIO
TITLE "Реплика Смерти"
INDEX 01 35:36:00
TRACK 20 AUDIO
TITLE "Заговор"
INDEX 01 36:36:00
TRACK 21 AUDIO
TITLE "Песня Тересы"
INDEX 01 37:53:00
TRACK 22 AUDIO
TITLE "Нападение"
INDEX 01 40:15:00
TRACK 23 AUDIO
TITLE "Колыбельная не родившемуся сыну"
INDEX 01 42:43:00
TRACK 24 AUDIO
TITLE "Реквием"
INDEX 01 46:13:00
TRACK 25 AUDIO
TITLE "Клятва Хоакина"
INDEX 01 48:03:00
TRACK 26 AUDIO
TITLE "Месть Хоакина"
INDEX 01 51:12:00
TRACK 27 AUDIO
TITLE "Наставления,Поцелуй Смерти"
INDEX 01 53:43:00
TRACK 28 AUDIO
TITLE "Воспоминания о Родине"
INDEX 01 57:24:00
TRACK 29 AUDIO
TITLE "Шествие к могиле Тересы"
INDEX 01 58:51:00
TRACK 30 AUDIO
TITLE "Эпилог"
INDEX 01 61:08:00[/spoiler]

Релиз от: Nikon200
Скачать торрент Алексей Рыбников - Звезда и смерть Хоакина Мурьеты [Vinyl-Rip Размер: 16 Kb Скачиваний: 6 Название файла: Алексей Рыбников - Звезда и смерть Хоакина Мурьеты [Vinyl-Rip (1978) FLAC]



  • Статус: проверено
  • .torrent скачан: 6 раз
  • Размер:


Комментарии 0
Комментариев пока нет. Стань первым!
Добавить комментарий
Код безопасности*