Рекомендуем:
торрент игры » Музыка » Robbie Williams - Greatest Hits [Vinyl-Rip, Limited Edition] (2004) FLAC скачать торрент на ПК

Robbie Williams - Greatest Hits [Vinyl-Rip, Limited Edition] (2004) FLAC

/ Просмотров:  92 / Комментариев: 0
0 0


Название: Greatest Hits
Исполнитель: Robbie Williams
Год: 2004
Страна-производитель: Europe
Аудио кодек: FLAC
Тип рипа: Image+.cue
Жанр: Pop, Pop-Rock
Разрядность: 24/96
Продолжительность: 01:18:40
Код класса состояния винила: Mint
Устройство воспроизведения: Music Hall MMF 5.1
Головка звукоснимателя: Music Hall Magic III Phono Cartridge
Предварительный усилитель: Pro Ject Tube Box SE 2
АЦП: Sound Blaster X-Fi Surround 5.1 Pro
Программа-оцифровщик: Wave Purity 6
Обработка: Не производилась

[spoiler=2004 - Greatest Hits (Chrysalis ‎– 724386681911)]
A1 Old Before I Die (3:53)
A2 Lazy Days (3:53)
A3 Angels (4:27)
A4 Let Me Entertain You (4:22)
A5 Millennium (3:46)

B1 No Regrets (4:43)
B2 Strong (4:19)
B3 She's The One (4:19)
B4 Rock DJ (4:16)

C1 Kids (4:19)
C2 Supreme (4:15)
C3 Let Love Be Your Energy (4:06)
C4 Eternity (5:00)

D1 The Road To Mandalay (3:18)
D1 Feel (3:43)
D2 Come Undone (3:54)
D3 Sexed Up (4:10)
D4 Radio (3:51)
D5 Misunderstood (4:01)
[spoiler=Спектр, АЧХ, Уровень записи][/spoiler]
[spoiler=Запасной .Cue]
REM GENRE Pop-Rock
REM DATE 2004
PERFORMER "Robbie Williams"
TITLE "Greatest Hits"
FILE "Robbie Williams Greatest Hits LP 1.flac" WAVE
TRACK 01 AUDIO
TITLE "Old Before I Die"
INDEX 01 00:00:00
TRACK 02 AUDIO
TITLE "Lazy Days"
INDEX 01 03:54:54
TRACK 03 AUDIO
TITLE "Angels"
INDEX 01 07:46:55
TRACK 04 AUDIO
TITLE "Let Me Entertain You"
INDEX 01 12:13:08
TRACK 05 AUDIO
TITLE "Millenium"
INDEX 01 16:37:20
TRACK 06 AUDIO
TITLE "No Regrets"
INDEX 01 20:20:65
TRACK 07 AUDIO
TITLE "Strong"
INDEX 01 25:05:69
TRACK 08 AUDIO
TITLE "She's The One"
INDEX 01 29:25:20
TRACK 09 AUDIO
TITLE "Rock DJ"
INDEX 01 33:42:11
FILE "Robbie Williams Greatest Hits LP 2.flac" WAVE
TRACK 10 AUDIO
TITLE "Kids"
INDEX 01 00:00:00
TRACK 11 AUDIO
TITLE "Supreme"
INDEX 01 04:21:73
TRACK 12 AUDIO
TITLE "Let Love Be Your Energy"
INDEX 01 08:38:05
TRACK 13 AUDIO
TITLE "Eternity"
INDEX 01 12:43:50
TRACK 14 AUDIO
TITLE "The Road To Mandalay"
INDEX 01 17:42:30
TRACK 15 AUDIO
TITLE "Feel"
INDEX 01 21:02:03
TRACK 16 AUDIO
TITLE "Come Undone"
INDEX 01 24:45:70
TRACK 17 AUDIO
TITLE "Sexed Up"
INDEX 01 28:39:16
TRACK 18 AUDIO
TITLE "Radio"
INDEX 01 32:49:73
TRACK 19 AUDIO
TITLE "Misunderstood"
INDEX 01 36:41:37
[/spoiler]

Релиз от: Маркус
Скачать торрент Robbie Williams - Greatest Hits [Vinyl-Rip, Limited Edition Размер: 16,69 Kb Скачиваний: 20 Название файла: Robbie Williams - Greatest Hits [Vinyl-Rip, Limited Edition (2004) FLAC]



  • Статус: проверено
  • .torrent скачан: 20 раз
  • Размер:


Комментарии 0
Комментариев пока нет. Стань первым!
Добавить комментарий
Код безопасности*