Рекомендуем:
торрент игры » Музыка » Billy F Gibbons - Hardware [Vinyl-Rip] (2021) FLAC скачать торрент на ПК

Billy F Gibbons - Hardware [Vinyl-Rip] (2021) FLAC

/ Просмотров:  77 / Комментариев: 0
0 0


Название: Hardware
Исполнитель: Billy F Gibbons
Год: 2021
Страна-производитель: Europe
Аудио кодек: FLAC
Тип рипа: Tracks
Жанр: Blues-Rock
Разрядность: 24/88.2
Продолжительность: 00:36:58
Код класса состояния винила: Mint
Устройство воспроизведения: SONY PS-X800
Головка звукоснимателя: SHURE V15VxMR
Предварительный усилитель: Pro-Ject Phono Box RS
АЦП: TASCAM DA-3000
Программа-оцифровщик: Adobe Audition
Обработка: Не производилась

[spoiler=2021 - Hardware (Concord Records ‎– 00602435066257)]

A1 My Lucky Card 2:35
A2 She's On Fire 2:46
A3 More-More-More 3:02
A4 Shuffle, Step & Slide 3:10
A5 Vagabond Man 3:59
A6 Spanish Fly 4:01

B1 West Coast Junkie 2:48
B2 Stackin' Bones 3:16
B3 I Was a Highway 2:34
B4 S-G-L-M-B-B-R 2:25
B5 Hey Baby, Que Paso 2:53
B6 Desert High 3:27

[spoiler=Спектр, АЧХ, Уровень записи][/spoiler]
[spoiler=Dynamic Range Meter]
foobar2000 1.5 / Dynamic Range Meter 1.1.1
log date: 2021-06-04 16:04:27

--------------------------------------------------------------------------------
Analyzed: ? / ?
--------------------------------------------------------------------------------

DR Peak RMS Duration Track
--------------------------------------------------------------------------------
DR12 -0.54 dB -14.96 dB 2:34 ?-01 - My Lucky Card
DR11 -1.13 dB -13.70 dB 2:47 ?-02 -She's On Fire
DR11 -1.61 dB -14.69 dB 3:02 ?-03 - More-More-More
DR12 -0.09 dB -13.91 dB 3:10 ?-04 - Shuffle, Step & Slide
DR12 -0.32 dB -15.19 dB 4:00 ?-05 - Vagabond Man
DR14 -0.09 dB -17.22 dB 4:00 ?-06 - Spanish Fly
DR11 -1.76 dB -14.92 dB 2:49 ?-07 - West Coast Junkie
DR11 -1.02 dB -14.12 dB 3:17 ?-08 - Stackin' Bones
DR11 -1.05 dB -14.21 dB 2:34 ?-09 - I Was a Highway
DR11 -1.58 dB -14.75 dB 2:25 ?-10 - S-G-L-M-B-B-R
DR13 -0.39 dB -15.79 dB 2:53 ?-11 - Hey Baby, Que Paso
DR10 -3.31 dB -17.54 dB 3:27 ?-12 - Desert High
--------------------------------------------------------------------------------

Number of tracks: 12
Official DR value: DR12

Samplerate: 88200 Hz
Channels: 2
Bits per sample: 24
Bitrate: 4234 kbps
Codec: PCM
================================================================================[/spoiler]
Релиз от: Alexspkl
Скачать торрент Billy F Gibbons - Hardware [Vinyl-Rip Размер: 16,02 Kb Скачиваний: 6 Название файла: Billy F Gibbons - Hardware [Vinyl-Rip (2021) FLAC]



  • Статус: проверено
  • .torrent скачан: 6 раз
  • Размер:


Комментарии 0
Комментариев пока нет. Стань первым!
Добавить комментарий
Код безопасности*