Рекомендуем:
торрент игры » Музыка » МакSим - Трудный возраст [Vinyl-Rip, Reissue] (2006/2021) WavPack скачать торрент на ПК

МакSим - Трудный возраст [Vinyl-Rip, Reissue] (2006/2021) WavPack

/ Просмотров:  48 / Комментариев: 0
0 0


Название: Трудный возраст
Исполнитель: МакSим
Год: 2006/2021
Страна-производитель: Latvia
Аудио кодек: WavPack
Тип рипа: Image+.cue
Жанр: Pop
Разрядность: 24/192
Продолжительность: 00:42:52
Код класса состояния винила: Mint
Устройство воспроизведения: Technics SL-1210MK2
Головка звукоснимателя: Victor X-1IIE
Предварительный усилитель: PS-Audio Phono
АЦП: M-Audio
Программа-оцифровщик: SF10
Обработка: iZotope RX6 (several manual de-clicks)

[spoiler=2006/2021 - Трудный возраст (Warner Music Russia - 9029501826)]
A1. Трудный возраст (3:43)
A2. Сантиметры дыханья (3:27)
A3. Нежность (3:19)
A4. Лолита (4:11)
A5. Сон (3:23)
A6. Ветром стать (3:12)

B1. Отпускаю (4:15)
B2. Знаешь ли ты (4:02)
B3. Сантиметры дыханья (Remix) (3:11)
B4. Нежность (Remix Acid-Jazz) (4:35)
B5. Отпускаю (Artifact Radio Mix) (3:51)
B6. Небо цвета молока (1:35)

[spoiler=Спектр, АЧХ, Уровень записи][/spoiler]
[spoiler=Замер динамического диапазона]
foobar2000 1.5.5 / Замер динамического диапазона (DR) 1.1.1
Дата отчёта: 2021-07-10 12:43:51

--------------------------------------------------------------------------------
Анализ: МакSим / Трудный возраст
--------------------------------------------------------------------------------

DR Пики RMS Продолжительность трека
--------------------------------------------------------------------------------
DR10 -0.49 дБ -12.78 дБ 3:44 01-Трудный возраст
DR12 -0.86 дБ -14.78 дБ 3:29 02-Сантиметры дыханья
DR12 -1.05 дБ -14.61 дБ 3:18 03-Нежность
DR12 -0.74 дБ -14.34 дБ 4:11 04-Лолита
DR11 -0.78 дБ -13.53 дБ 3:23 05-Сон
DR11 -1.99 дБ -15.28 дБ 3:14 06-Ветром стать
DR10 -0.99 дБ -14.43 дБ 4:20 07-Отпускаю
DR10 -0.66 дБ -12.98 дБ 4:02 08-Знаешь ли ты
DR9 -1.71 дБ -12.58 дБ 3:11 09-Сантиметры дыханья (Remix)
DR11 -0.51 дБ -13.39 дБ 4:34 10-Нежность (Remix Acid-Jazz)
DR11 -1.04 дБ -12.75 дБ 3:52 11-Отпускаю (Artifact Radio Mix)
DR13 -6.32 дБ -22.83 дБ 1:35 12-Небо цвета молока
--------------------------------------------------------------------------------

Количество треков: 12
Реальные значения DR: DR11

Частота: 192000 Гц
Каналов: 2
Разрядность: 24
Битрейт: 5772 кбит/с
Кодек: WavPack
================================================================================
[/spoiler]

Релиз от: Turbo-Diesell
Скачать торрент МакSим - Трудный возраст [Vinyl-Rip, Reissue Размер: 19,63 Kb Скачиваний: 10 Название файла: МакSим - Трудный возраст [Vinyl-Rip, Reissue (2006/2021) WavPack]



  • Статус: проверено
  • .torrent скачан: 10 раз
  • Размер:


Комментарии 0
Комментариев пока нет. Стань первым!
Добавить комментарий
Код безопасности*